Login
Username:
Password:
Remember Me:
[Signup]
[Recover Account]
Friends
BTScene
Friendly site

Free Courses Online
Friendly site

Anime RG
Friendly site

KaranPC
Friendly site

P2PDL.com
Friendly site

Free Tutorials & Courses
Friendly site
Torrent Details For "Baaghi 2 2018 Hindi 720p HDRip AAC 2 0 x264 [MW]"

Baaghi 2 2018 Hindi 720p HDRip AAC 2 0 x264 [MW]

To download this torrent, you need a BitTorrent client: Vuze or BTGuard
Download this torrent
Download using Magnet Link





Health:
Seeds: 923
Leechers: 1,642
Completed: 1,200 
Last Checked: 17-04-2018 14:11:07

Uploader Reputation points : 2860
External: Torrent




Write a Review for the Uploader:   10   Say Thanks with one good review:


Details
Name:Baaghi 2 2018 Hindi 720p HDRip AAC 2 0 x264 [MW]
Description:




General
Format                                   : Matroska
Format version                           : Version 4 / Version 2
File size                                : 1.22 GiB
Duration                                 : 2 h 23 min
Overall bit rate                         : 1 221 kb/s

Video
ID                                       : 1
Format                                   : AVC
Format/Info                              : Advanced Video Codec
Format profile                           : [email protected]
Format settings                          : CABAC / 4 Ref Frames
Format settings, CABAC                   : Yes
Format settings, RefFrames               : 4 frames
Codec ID                                 : V_MPEG4/ISO/AVC
Duration                                 : 2 h 23 min
Bit rate                                 : 1 100 kb/s
Width                                    : 1 280 pixels
Height                                   : 540 pixels
Display aspect ratio                     : 2.40:1
Frame rate mode                          : Constant
Frame rate                               : 15.000 FPS
Color space                              : YUV
Chroma subsampling                       : 4:2:0
Bit depth                                : 8 bits
Scan type                                : Progressive
Bits/(Pixel*Frame)                       : 0.106
Stream size                              : 1.09 GiB (89%)
Writing library                          : x264 core 155 r2893 b00bcaf
Default                                  : Yes
Forced                                   : No

Audio
ID                                       : 2
Format                                   : AAC
Format/Info                              : Advanced Audio Codec
Format profile                           : LC
Codec ID                                 : A_AAC-2
Duration                                 : 2 h 23 min
Bit rate                                 : 128 kb/s
Channel(s)                               : 2 channels
Channel positions                        : Front: L R
Sampling rate                            : 48.0 kHz
Frame rate                               : 46.875 FPS (1024 SPF)
Compression mode                         : Lossy
Stream size                              : 131 MiB (10%)
Language                                 : Hindi
Default                                  : Yes
Forced                                   : No







YouTube Video:
Category:Movies
Language:Hindi  Hindi
Total Size:1.22 GB
Info Hash:EF4EE93D4BABBC4C478E64091EF0115A379DE19A
Added By:MovieFreak Verified UploaderMovie Pirate
Date Added:17-04-2018 08:58:18
Torrent Status:Torrent Verified


Ratings:Not Yet Rated (Log in to rate it)


Tracker:
udp://tracker.pirateparty.gr:6969/announce

This Torrent also has backup trackers
URLSeedersLeechersCompleted
udp://tracker.pirateparty.gr:6969/announce94173113
udp://tracker.opentrackr.org:1337/announce110174137
udp://tracker.opentrackr.org:80/announce000
udp://tracker.vanitycore.co:6969/announce76127101
udp://public.popcorn-tracker.org:6969/announce8114066
udp://9.rarbg.to:2720/announce81155149
udp://9.rarbg.me:2740/announce81155149
udp://9.rarbg.com:2790/announce81155149
udp://inferno.demonoid.pw:3391/announce498843
udp://tracker.internetwarriors.net:1337/announce000
udp://ipv4.tracker.harry.lu:80/announce21580
udp://p4p.arenabg.ch:1337/announce000
http://tracker.vanitycore.co:6969/announce75128101
http://public.popcorn-tracker.org:6969/announce8114166
udp://tracker.zer0day.to:1337/announce000
udp://tracker.leechers-paradise.org:6969/announce93148126
udp://coppersurfer.tk:6969/announce000


File List: 



Warning! Do not Download Torrents Without a VPN!
Your IP Address is .   Location is
Your Internet Provider and Government can track your torrent Activity! Hide your IP ADDRESS with a VPN!
We strongly recommend using SpyOFF VPN to anonymize your Torrenting.It's FREE!
START YOUR FREE TRIAL NOW!


Comments
No comments still posted